Radio D-65
HVALA ŠTO STE SA NAMA !!!!!!!
UPOTPUNITE I POSTAVITE I VI NEŠTO
BUDITE AKTIVAN ČLAN OVOG FORUMA


Informacije, Kultura, Oglasi, Muzika
 
PrijemGalerijaČesto Postavljana PitanjaTražiRegistruj seLista članovaKorisničke grupePristupi
Traži
 
 

Rezultati od :
 
Rechercher Napredna potraga
Similar topics
Zadnje teme
» Blues Forever, Vol.77 (2017)
Ned 15 Okt 2017, 05:07 od mromanov

» AKCIONI FILMOVI
Ned 15 Okt 2017, 05:00 od mromanov

» THRILLERI
Ned 15 Okt 2017, 04:55 od mromanov

» HOROR FILMOVI
Pon 11 Sep 2017, 10:44 od mromanov

» Becarci - Tamburaski becarac
Ned 10 Sep 2017, 19:35 od mromanov

» Tamburaši najlepše pesme MIX/ lek za dušu
Ned 10 Sep 2017, 19:32 od mromanov

» Najlepše kafanske pesme za srce i dušu / harmonika+violina+gitara / MIX
Ned 10 Sep 2017, 19:29 od mromanov

» Hungarian Gypsy Music Part 1
Ned 10 Sep 2017, 19:26 od mromanov

» Johannes_Brahms--Hungarian_Dance_No._5
Ned 10 Sep 2017, 19:24 od mromanov

» Stranger on the Shore - 101 Instrumental All Time Greats
Ned 10 Sep 2017, 19:18 od mromanov

» The world music collection - 200 Instrumental hits
Ned 10 Sep 2017, 19:15 od mromanov

»  ADVENTURE
Ned 10 Sep 2017, 10:31 od mromanov

» Elton John - Discography ( 41 Albums ) 1969-2008-MFA
Uto 05 Sep 2017, 19:16 od mromanov

» Paco de Lucía - Discography (1969-2004)
Uto 05 Sep 2017, 19:11 od mromanov

Navigation
 Portal
 Indeks
 Lista članova
 Profil
 FAQ - Često Postavljana Pitanja
 Traži
Internet Radio D65
PODRŽITE NAŠ RADIO Ovde glasajte za naš radio

Delite | 
 

 FILMOVI 2010

Pogledaj prethodnu temu Pogledaj sledeću temu Ići dole 
Idi na stranu : Prethodni  1, 2, 3  Sledeći
AutorPoruka
mromanov
Srebrni član
Srebrni član
avatar

Broj poruka : 790
Godina : 56
Location : DERONJE
Points : 4238
Reputation : 52
Datum upisa : 24.08.2010

PočaljiNaslov: Tron: Legacy (2010)   Pon 28 Feb 2011, 11:01

Tron: Legacy (2010)

[FORMAT]:.......................[ Matroska
[AWARDS]:.......................[ Nominated for Oscar. Another 1 win & 4 nominations
[GENRE]:........................[ Action | Adventure | Sci-Fi | Thriller
[FILE SIZE]:....................[ 500 MiB
[NO OF CDs]:....................[ 1
[RESOLUTION]:...................[ 704*380
[ASPECT RATIO]:.................[ 1.853
[FRAME RATE]:...................[ 29.976 fps
[LANGUAGE ]:....................[ English
[SUBTITLES]:....................[ None
[ORIGINAL RUNTIME]:.............[ 02:03:00
[RELEASE RUNTIME]:..............[ 01:59:00
[SOURCE]:.......................[ PPV.TOXiC.iNK


Nazad na vrh Ići dole
Pogledaj profil korisnika
mromanov
Srebrni član
Srebrni član
avatar

Broj poruka : 790
Godina : 56
Location : DERONJE
Points : 4238
Reputation : 52
Datum upisa : 24.08.2010

PočaljiNaslov: Sinbad And The Minotaur (2010)    Sub 12 Feb 2011, 09:07

Sinbad And The Minotaur (2010)

Sinbad And The Minotaur (2010) DVDRiP XviD-UNVEiL 700 MB
Video
ID: 0
Format: MPEG-4 Visual
Format profile: Advanced Simple@L5
Format settings, BVOP: 2
Format settings, QPel: No
Format settings, GMC: No warppoints
Format settings, Matrix: Default (H.263)
Codec ID: XVID
Codec ID/Hint: XviD
Duration: 1h 28mn
Bit rate: 949 Kbps
Width: 624 pixels
Height: 352 pixels
Display aspect ratio: 16:9
Frame rate: 25.000 fps
Color space: YUV
Chroma subsampling: 4:2:0
Bit depth: 8 bits
Scan type: Progressive
Compression mode: Lossy
Bits/(Pixel*Frame): 0.173
Stream size: 602 MiB (86%)
Writing library: XviD 1.2.1 (UTC 2008-12-04)

Audio
ID: 1
Format: MPEG Audio
Format version: Version 1
Format profile: Layer 3
Mode: Joint stereo
Codec ID: 55
Codec ID/Hint: MP3
Duration: 1h 28mn
Bit rate mode: Variable
Bit rate: 144 Kbps
Channel(s): 2 channels
Sampling rate: 48.0 KHz
Compression mode: Lossy
Stream size: 89.2 MiB (13%)
Alignment: Aligned on interleaves
Interleave, duration: 24 ms (0.60 video frame)
Interleave, preload duration: 131 ms
Writing library: LAME3.98
Encoding settings: -m j -V 4 -q 3 -lowpass 17.5 --abr 144


Nazad na vrh Ići dole
Pogledaj profil korisnika
mromanov
Srebrni član
Srebrni član
avatar

Broj poruka : 790
Godina : 56
Location : DERONJE
Points : 4238
Reputation : 52
Datum upisa : 24.08.2010

PočaljiNaslov: Everyday Black Man    Sub 12 Feb 2011, 09:04

Everyday Black Man (2010

Name:Everyday Black Man (2010)
Rating: 5.2/10
Release Date:
Director: Carmen Madden
Cast:
Genre: Action, Drama
Language: English
Plot: Since closing the door to a violent past, quiet and thoughtful Moses Stanton everyday existence is running a small neighborhood store, and watching over his daughter who doesn't know he exists. When a young man, Malik, comes in claiming to be a black Muslim that is doing good for the neighborhood, Moses takes him on as a partner but soon realizes that Malik is nothing but a drug dealer seeking to destroy the neighborhood and Moses's daughter. Therefore, Moses must become the man he used to be in order to save his beloved neighborhood and his daughter.
Video Info
File: whoo.ws_Everyday.Blackman.2011.DVDRip.XviD-LKRG.avi
Size: 746637372 bytes (712.05 MiB), duration: 01:39:31, avg.bitrate: 1000 kb/s
Audio: ac3, 48000 Hz, stereo, 224 kb/s
Video: mpeg4, yuv420p, 720x304, 29.97 fps(r)
whoo.ws




OR
Nazad na vrh Ići dole
Pogledaj profil korisnika
mromanov
Srebrni član
Srebrni član
avatar

Broj poruka : 790
Godina : 56
Location : DERONJE
Points : 4238
Reputation : 52
Datum upisa : 24.08.2010

PočaljiNaslov: Sanctum 2010 TS XViD   Uto 08 Feb 2011, 04:23

Sanctum 2010 TS XViD

An underwater cave diving team experiences a life-threatening crisis during an expedition to the unexplored and least accessible cave system in the world.

Size:650mb.

English | 1h 38mn | 720 x 384

Genre : Action | Adventure | Drama
DOWNLOAD:

Nazad na vrh Ići dole
Pogledaj profil korisnika
mromanov
Srebrni član
Srebrni član
avatar

Broj poruka : 790
Godina : 56
Location : DERONJE
Points : 4238
Reputation : 52
Datum upisa : 24.08.2010

PočaljiNaslov: Gunless 2010 DvDRiP XviD DMZ   Ned 06 Feb 2011, 00:25

Gunless 2010 DvDRiP XviD DMZ


DOWNLOAD

Kod:
http://www.filesonic.com/file/72999415/Gunless.2010.DvDRiP.XviD.DMZ.part1.rar
http://www.filesonic.com/file/72999417/Gunless.2010.DvDRiP.XviD.DMZ.part2.rar
Nazad na vrh Ići dole
Pogledaj profil korisnika
mromanov
Srebrni član
Srebrni član
avatar

Broj poruka : 790
Godina : 56
Location : DERONJE
Points : 4238
Reputation : 52
Datum upisa : 24.08.2010

PočaljiNaslov: Hard Ride to Hell -2010   Sub 05 Feb 2011, 07:53

Hard Ride to Hell -2010


Група породице и пријатељима на камповање путовање кроз Тексас Бадландс су предузете на начин вожње у пакао након што су случајно сведоци ритуала жртвовања на пусто камп. Пурсед од ђавола обожавају бајкер банде одговорне, они рупу у напуштени цркви у близини границе, само да би открио да су пиони у деценијама старом битка између добра и зла.

A group of family and friends on a camping trip through the Texas badlands are taken on a on-way ride to Hell after they inadvertently witness a ritual sacrifice at a deserted campsite. Pursed by the devil worshiping biker gang responsible, they hole up in an abandoned church near the border, only to discover that they are pawns in a decades-old battle between good and evil.

Download

Kod:
http://freakshare.com/files/382oqru6/Hard-20Ride-20to-20Hell-2010.avi.html


Kod:
http://www.filesonic.com/file/52242010/Hard Ride to Hell-2010.avi


Kod:
http://www.fileserve.com/file/BEbPPDA/Hard Ride to Hell-2010.avi
Nazad na vrh Ići dole
Pogledaj profil korisnika
mromanov
Srebrni član
Srebrni član
avatar

Broj poruka : 790
Godina : 56
Location : DERONJE
Points : 4238
Reputation : 52
Datum upisa : 24.08.2010

PočaljiNaslov: Icarus - 2010   Sub 05 Feb 2011, 07:48

Icarus - 2010

A Soviet-trained assassin is determined to escape his double life as a hitman and as a husband-father.

Download:



OR

Nazad na vrh Ići dole
Pogledaj profil korisnika
mromanov
Srebrni član
Srebrni član
avatar

Broj poruka : 790
Godina : 56
Location : DERONJE
Points : 4238
Reputation : 52
Datum upisa : 24.08.2010

PočaljiNaslov: The.Chronicles.of.Narnia.The.Voyage.of.the Dawn.Treader.2010   Pet 04 Feb 2011, 01:10

The.Chronicles.of.Narnia.The.Voyage.of.the Dawn.Treader.2010.R5.LiNE.XviD-playXD [700MB]

PLOT:
Lucy and Edmund Pevensie return to Narnia with their cousin Eustace where they meet up
with Prince Caspian for a trip across the sea aboard the royal ship The Dawn Treader.
Along the way they encounter dragons, dwarves, merfolk, and a band of lost warriors
before reaching the edge of the world.

GENRE: Adventure | Family | Fantasy
IMDB RATES: 6.7/10 (9,397 votes)
DIRECTOR: Michael Apted
Size: 700 MB?
Video: XviD | 624×336 | 787 Kbps
Audio: English | AC3 | 112 Kbps
Runtime: 1h 35mn

DOWNLOADING LINKS
Kod:
Hotfile
http://hotfile.com/dl/98487157/435a557/The.Chronicles.of.Narnia.The.Voyage.of.the.Dawn.Treader.R5.LiNE.XviD-playXD.avi.html

Fileserve:
http://www.fileserve.com/file/QtwvkDx
Nazad na vrh Ići dole
Pogledaj profil korisnika
mromanov
Srebrni član
Srebrni član
avatar

Broj poruka : 790
Godina : 56
Location : DERONJE
Points : 4238
Reputation : 52
Datum upisa : 24.08.2010

PočaljiNaslov: Get Low 2010 BDRip XviD-DEFACED   Pet 04 Feb 2011, 01:06

Get Low 2010 BDRip XviD-DEFACED


Here we have a BDRip of film “Get Low” released by unknown group DEFACED. Get Low is a 2009 film directed by Aaron Schneider and starring with Robert Duvall and Bill Murray. Nice quality release with mp3 audio.

PLOT:

Felix Bush (Robert Duvall) is a hermit who has no regard for anybody in the town or anyone who wants to get to know him. But one day, after a fellow old hermit as died and he hears people in the town telling stories about him, he decides that he needs to get these stories out in the public. He recruits Frank (Bill Murray) the local funeral home director to host his own funeral. This way he can hear what everyone is saying about him, and get the truth to his past out in the open. But will he be able to get anybody to come? And will he be able to reveal his secrets?

Genre: Drama | Mystery
IMDB rating: 7.4/10 (2,256 votes)
Director: Aaron Schneider
Stars: Robert Duvall, Bill Murray and Sissy Spacek

Release Name: Get.Low.BDRip.XviD-DEFACED
Size: 700MB
Video: XviD, 640×272, 806 Kbps
Audio: MP3, 128kbps
Runtime: 100mins

Download Links:

700MB | Single Links | No Extraction

Kod:
Hotfile:
http://hotfile.com/dl/101710307/553d043/defaced-getlow-xvid.avi.html

Fileserve:
http://www.fileserve.com/file/qpQCYhB/defaced-getlow-xvid.avi

Rapidshare:
http://www.rapidshare.com/files/446113200/defaced-getlow-xvid.part4.rar
http://www.rapidshare.com/files/446113205/defaced-getlow-xvid.part3.rar
http://www.rapidshare.com/files/446113201/defaced-getlow-xvid.part1.rar
http://www.rapidshare.com/files/446113202/defaced-getlow-xvid.part2.rar
Nazad na vrh Ići dole
Pogledaj profil korisnika
mromanov
Srebrni član
Srebrni član
avatar

Broj poruka : 790
Godina : 56
Location : DERONJE
Points : 4238
Reputation : 52
Datum upisa : 24.08.2010

PočaljiNaslov: Season Of The Witch 2011 TS XviD-Rx   Pet 04 Feb 2011, 00:58


Season Of The Witch 2011 TS XviD-Rx


Update:

01.12.2011: Season Of The Witch 2011 CAM removed
01.16.2011: Season Of The Witch 2011 TS XviD-Rx added

PLOT:

A 14th century Crusader returns to a homeland devastated by the Black Plague. A beleaguered church, deeming sorcery the culprit of the plague, commands the two knights to transport an accused witch to a remote abbey, where monks will perform a ritual in hopes of ending the pestilence. A priest, a grieving knight, a disgraced itinerant and a headstrong youth who can only dream of becoming a knight join a mission troubled by mythically hostile wilderness and fierce contention over the fate of the girl. When the embattled party arrives at the abbey, a horrific discovery jeopardises the knight's pledge to ensure the girl fair treatment, and pits them against an inexplicably powerful and destructive force.

Genre: Adventure | Drama | Fantasy
IMDB rating: 5.7/10 (2,090 votes)
Directed by: Dominic Sena
Starring: Nicolas Cage, Ron Perlman and Claire Foy

Release Name: Season.Of.The.Witch.2011.TS.XviD-Rx
Size: 1.37GB
Video: XviD, 720x320, 1 600 Kbps
Audio: English | 256 Kbps
Runtime: 1h 24mn

Download:

Please Say "THANKS"

1.37GB | Single Link | No Extraction
Kod:
http://www.fileserve.com/file/x8PNEQh/rx-sotw-ts.avi
Nazad na vrh Ići dole
Pogledaj profil korisnika
mromanov
Srebrni član
Srebrni član
avatar

Broj poruka : 790
Godina : 56
Location : DERONJE
Points : 4238
Reputation : 52
Datum upisa : 24.08.2010

PočaljiNaslov: Faster 2010 DVDRip XviD-ARROW   Čet 03 Feb 2011, 07:56

Faster 2010 DVDRip XviD-ARROW
Scene group ARROW have released the DVDRiP of the new action film starring Dwayne “The Rock” Johnson. This film actually looks like it suits Dwayne Johnson really well and its about time he made another good looking action film instead of these kids movies like Race to Witch Mountain, Tooth Fairy etc. Quality wise its good as you would expect from a standard 700MB rip.

PLOT:

An ex-con sets out to avenge his brother's death after they were double-crossed during a heist years ago. During his campaign, however, he's tracked by a veteran cop and an egocentric hit man.

Genre: Action | Crime | Drama
IMDB rating: 7.0/10 (2,875 votes)
Director: George Tillman Jr.
Stars: Dwayne Johnson, Billy Bob Thornton and Maggie Grace

Release Name: Faster.DVDRip.XviD-ARROW
Size: 700MB
Video: XViD, 640×272, 862kbps
Audio: MP3, 128kbps
Runtime: 98mins

download

Kod:
Hotfile:
http://hotfile.com/dl/101487919/22910dd/arrow-faster.xvid.avi.html

Fileserve:
http://www.fileserve.com/file/y6gAu5U/arrow-faster.xvid.avi

Bitshare:
http://bitshare.com/files/dijugw0b/arrow-faster.xvid.avi.html

Easy-Share:
http://www.easy-share.com/1913754455/arrow-faster.xvid.avi

Rapidshare:
http://www.rapidshare.com/files/445943525/arrow-faster.xvid.part4.rar
http://www.rapidshare.com/files/445943527/arrow-faster.xvid.part1.rar
http://www.rapidshare.com/files/445943524/arrow-faster.xvid.part2.rar
http://www.rapidshare.com/files/445943526/arrow-faster.xvid.part3.rar
Nazad na vrh Ići dole
Pogledaj profil korisnika
redakcija_d65
Admin
avatar

Broj poruka : 1922
Location : Srbija
Points : 6041
Reputation : 10
Datum upisa : 08.12.2007

PočaljiNaslov: Snowblind 2010 XviD-VODO   Pon 24 Jan 2011, 04:02

Snowblind 2010 XviD-VODO

PLOT:

Yay, Snowblind won it’s first award! The Yellow Fever International Film Festival, which took place at the end of august in Belfast, honored Snowblind as “Best International Film”!

As today is my birthday, I have to say this is an unexpected present for me – and at the same time, one of my favourite ones so far hehhe
And to make it even better, local born actor Stephen Patrick Hannah was there at the event to pick up the award! Oh the honor!

Thank you Stephen, and thanks a million to the heroic crew of the YFiFF and their awesome audience!

The Coldest Western Ever

Genre: Western
IMDB rating: 8.0/10 (2,993 votes)
Directed by: Kilian Manning
Starring: Robert Lyons, Mala Ghedia and Erik Hansen

Release Name: Snowblind.2010.Xvid-VODO
Size: 700 mb
Quality: 640 x 320 934Kbps, English 128Kbps VBR MP3 audio
Runtime: 92 min

Download

Kod:
Hotfile:
http://hotfile.com/dl/82324269/996ea15/snowblind-xvid.avi.html

Fileserve:
http://www.fileserve.com/file/YxVwVsY/snowblind-xvid.avi

Keepfile:
http://www.keepfile.com/4c11p36kmslj/snowblind-xvid.avi
Nazad na vrh Ići dole
Pogledaj profil korisnika http://radiod65.co.rs
redakcija_d65
Admin
avatar

Broj poruka : 1922
Location : Srbija
Points : 6041
Reputation : 10
Datum upisa : 08.12.2007

PočaljiNaslov: Paranormal Activity 2 2010 UNRATED DVDRip XviD-Larceny   Pon 24 Jan 2011, 03:08

Paranormal Activity 2 2010 UNRATED DVDRip XviD-Larceny

PLOT:

After experiencing what they think are a series of "break-ins", a family sets up security cameras around their home, only to realize that the events unfolding before them are more sinister than they seem.

Genre: Horror | Mystery | Thriller
IMDB rating: 6.1/10 (10,653 votes)
Directed by: Tod Williams
Starring: Katie Featherston, Micah Sloat and Molly Ephraim

Release Name: Paranormal.Activity.2.2010.UNRATED.DVDRip.XviD-Larceny
Size: 700MB
Video: XviD, 640x352
Audio: mp3 128
Runtime: 97min.

Download Links:

700MB | Single


Kod:
Hotfile:
http://hotfile.com/dl/99143941/53fa880/l-pa2.avi.html

Fileserve:
http://www.fileserve.com/file/h49GZrV/l-pa2.avi

Easy-Share:
http://www.easy-share.com/1913656352/l-pa2.avi

Bitshare:
http://bitshare.com/files/561mn29z/l-pa2.avi.html

Rapidshare:
http://www.rapidshare.com/files/444268019/l-pa2.part2.rar
http://www.rapidshare.com/files/444268018/l-pa2.part1.rar
Nazad na vrh Ići dole
Pogledaj profil korisnika http://radiod65.co.rs
mromanov
Srebrni član
Srebrni član
avatar

Broj poruka : 790
Godina : 56
Location : DERONJE
Points : 4238
Reputation : 52
Datum upisa : 24.08.2010

PočaljiNaslov: Hereafter (2010) CAM XViD – IMAGiNE   Sre 12 Jan 2011, 00:08

Hereafter (2010) CAM XViD – IMAGiNE

Genre: Drama | Fantasy | Director: Clint Eastwood |
Starring: Matt Damon, Cécile De France,Bryce Dallas Howard
Language: English |Size: 1.346 GB

Download:

Nazad na vrh Ići dole
Pogledaj profil korisnika
mromanov
Srebrni član
Srebrni član
avatar

Broj poruka : 790
Godina : 56
Location : DERONJE
Points : 4238
Reputation : 52
Datum upisa : 24.08.2010

PočaljiNaslov: Moss 2010 720p BluRay x264-aBD   Sre 12 Jan 2011, 00:05

Moss 2010 720p BluRay x264-aBD




Download from FileServe


Download from FileSonic


Download from Uploading

» Linkovi se mogu kombinovati
Nazad na vrh Ići dole
Pogledaj profil korisnika
mromanov
Srebrni član
Srebrni član
avatar

Broj poruka : 790
Godina : 56
Location : DERONJE
Points : 4238
Reputation : 52
Datum upisa : 24.08.2010

PočaljiNaslov: The Final (2010)   Sub 01 Jan 2011, 22:13

The Final (2010)


Download:
Nazad na vrh Ići dole
Pogledaj profil korisnika
mromanov
Srebrni član
Srebrni član
avatar

Broj poruka : 790
Godina : 56
Location : DERONJE
Points : 4238
Reputation : 52
Datum upisa : 24.08.2010

PočaljiNaslov: Altitude (2010) DVDRip   Sub 01 Jan 2011, 22:08

Altitude (2010) DVDRip

Complete Name...............: Altitude
Format......................: Matroska
File size...................: 396 MiB
Duration....................: 1h 30mn
Overall bit rate............: 614 Kbps
Resolution..................: 688 x 288 pixels
Frame rate..................: 23.976 fps
Audio.......................: AAC 48000KHz
Audio Language..............: English

[You must be registered and logged in to see this link.]
Nazad na vrh Ići dole
Pogledaj profil korisnika
mromanov
Srebrni član
Srebrni član
avatar

Broj poruka : 790
Godina : 56
Location : DERONJE
Points : 4238
Reputation : 52
Datum upisa : 24.08.2010

PočaljiNaslov: Buried 2010   Sub 01 Jan 2011, 22:06

Buried 2010 R5 XViD - IMAGiNE

********************************************************************************************************************

Ripper ...........: IMAGiNE IMDB Rating.......:7.7/10
Video Codec.......: XVID Release Date......:17/11/10
Audio Codec.......:MP3 Theatre Date......:01/10/10
Audio Bitrate.....:128 Runtime.......:1h 31mn
Subtitles.........:NIL Language..........:ENGLISH
Resolution...... 720 x 304 IMDb URL..........:http://www.in.renslt.org/title/tt1462758/


DETAILS:

Video
ID : 0
Format : MPEG-4 Visual
Format profile : Advanced Simple@L5
Format settings, BVOP : Yes
Format settings, QPel : No
Format settings, GMC : No warppoints
Format settings, Matrix : Default (H.263)
Muxing mode : Packed bitstream
Codec ID : XVID
Codec ID/Hint : XviD
Duration : 1h 31mn
Bit rate : 2 186 Kbps
Width : 720 pixels
Height : 304 pixels
Display aspect ratio : 2.35
Frame rate : 25.000 fps
Resolution : 24 bits
Colorimetry : 4:2:0
Scan type : Progressive
Bits/(Pixel*Frame) : 0.400
Stream size : 1.39 GiB (94%)
Writing library : XviD 1.1.2 (UTC 2006-11-01)

Audio
ID : 1
Format : MPEG Audio
Format version : Version 1
Format profile : Layer 3
Codec ID : 55
Codec ID/Hint : MP3
Duration : 1h 31mn
Bit rate mode : Constant
Bit rate : 128 Kbps
Channel(s) : 2 channels
Sampling rate : 44.1 KHz
Resolution : 16 bits
Stream size : 83.5 MiB (6%)
Alignment : Split accross interleaves
Interleave, duration : 40 ms (1.00 video frame)
Interleave, preload duration : 500 ms



SOURCES:

VIDEO:Russian DVD9 .................. Thanks
AUDIO:OWN CAM

DOWNLOAD
[code]


PASS
Nazad na vrh Ići dole
Pogledaj profil korisnika
mromanov
Srebrni član
Srebrni član
avatar

Broj poruka : 790
Godina : 56
Location : DERONJE
Points : 4238
Reputation : 52
Datum upisa : 24.08.2010

PočaljiNaslov: Horror Thriller The Maze    Sub 01 Jan 2011, 22:04

Horror Thriller The Maze 2010 DVDRip XviD 1 LINK SINGLE

Genre: Action / Horror / Thriller
Year: 2010
Country: USA
file 697mb
avi
Cast: Shalaina Castle, Brandon Sean Pearson, Clare Niederpruem, Kyle Paul, Tye Nelson, Luke Drake
Five friends break into a closed corn maze in the middle of the night and decide to play a harmless game of tag. Little do they know that a psychopathic killer has decided to play along. As they wander aimlessly through the maze the murderer follows closely behind, taunting them and watching their every move. The game turns deadly when the kids decide to separate and weaken their chances of survival. When the mutilated body of the maze owner is found they realize that something is terribly wrong. As they race to find the entrance of the maze, the murderer cleverly forces them to follow the path that he wants. Manipulating everyone to his vicious will, the killer taunts his victims and leads them further into the depths of the maze. After succumbing to hours of torture will anyone make it out of the maze…alive?

DOWNLOAD
Nazad na vrh Ići dole
Pogledaj profil korisnika
mromanov
Srebrni član
Srebrni član
avatar

Broj poruka : 790
Godina : 56
Location : DERONJE
Points : 4238
Reputation : 52
Datum upisa : 24.08.2010

PočaljiNaslov: Machete 2010 CAM XVID-MAGNET    Sre 08 Dec 2010, 12:07

Machete 2010 CAM XVID-MAGNET

DOWNLOAD:
Nazad na vrh Ići dole
Pogledaj profil korisnika
svetlana romanov
Registrovani član
Registrovani član
avatar

Broj poruka : 45
Godina : 56
Points : 3716
Reputation : 2
Datum upisa : 08.12.2007

PočaljiNaslov: Takedown 2010   Pon 01 Nov 2010, 21:41


Takedown 2010

An security guard uncovers more than he bargained for.

Genre: Action | Drama | Thriller
Size: 693.701 MB |
Runtime : 1h 32mn
Video :720 x 304 @ 890kbps
Audio : AAC @ 128 Kbps
Language: English |
Subtitles: N/A
Director: Raul Inglis
Starring: Lou Diamond Phillips , Estella Warren , Deborah Kara Unger , Aaron Pear

download code:
Nazad na vrh Ići dole
Pogledaj profil korisnika
svetlana romanov
Registrovani član
Registrovani član
avatar

Broj poruka : 45
Godina : 56
Points : 3716
Reputation : 2
Datum upisa : 08.12.2007

PočaljiNaslov: Inception[2010]   Pon 01 Nov 2010, 21:36

Inception[2010]

User Rating: 9.1/10 (208,860 votes)
Runtime: 148 Dk.
Cast (first 10): Leonardo DiCaprio, Joseph Gordon-Levitt, Ellen Page, Tom Hardy, Ken Watanabe, Dileep Rao, Cillian Murphy, Tom Berenger, Marion Cotillard, Pete Postlethwaite

IMDB: [You must be registered and logged in to see this link.]

AUDiO.........[ MP3 48000Hz 112 kb/s CBR (2 chnls)
LANGUAGE......[ English
ViDEO.........[ 775 kbps XviD 23.976 FPS
RESOLUTiON....[ 640 x 256
DAR...........[ 2.500 (5:2)
QUALiTY FRAME.[ 0.197
SUBS..........[ English
SiZE..........[ 949 MB
SOURCE........[ NTSC DVD

RiP...........[ #432
RELEASE DATE..[ 31/10/2010

download cod:
Nazad na vrh Ići dole
Pogledaj profil korisnika
svetlana romanov
Registrovani član
Registrovani član
avatar

Broj poruka : 45
Godina : 56
Points : 3716
Reputation : 2
Datum upisa : 08.12.2007

PočaljiNaslov: Vampires Suck R5 AC3 Xvid-CLASSiFiED   Uto 26 Okt 2010, 10:49

Vampires Suck R5 AC3 Xvid-CLASSiFiED

[You must be registered and logged in to see this link.]

A spoof of vampire-themed movies, where teenager Becca finds herself torn between two boys. As she and her friends wrestle with a number of different dramas, everything comes to a head at their prom.

Genre: Comedy
Size:1.32 GB |
Duration: 01:15:42
Video : 720x384
Language: English|
Subtitles: N/A
Director: Jason Friedberg
Starring: Marcelle Baer, Emily Brobst, Parker Dash,David DeLuise

DOWNLOAD:
Nazad na vrh Ići dole
Pogledaj profil korisnika
svetlana romanov
Registrovani član
Registrovani član
avatar

Broj poruka : 45
Godina : 56
Points : 3716
Reputation : 2
Datum upisa : 08.12.2007

PočaljiNaslov: Wrong Side Of Town (2010)    Uto 26 Okt 2010, 10:45

Wrong Side Of Town (2010)

Wrong Side Of Town (2010)

Country: USA
Genre: Action | Comedy | Crime
Runtime: 88 min
User Rating: 3.9/10 (800 votes)
Director: David DeFalco
Cast: Rob Van Dam, Dave Batista, Lara Grice, Edrick Browne, Ava Santana, Stormy Daniels, Randal Reeder, Jerry Katz, Louis Herthum, Brooke Frost…
File Name : Wrong Side Of Town.avi
File Size : 701 Mb.

[Movie]
Valid : Yes [AVI]
Duration : 01:28:08
Movie complete : Yes

[Video]
Resolution : 608x336
Codec : XviD MPEG-4 codec
FPS : 23,98
BitRate : 703 Kbps
Quality Factor : 0,15 b/px

[Audio]
Codec : ATSC/A-52 Dolby AC3
Number of channels : 6
Sample Rate : 48000 Hz
BitRate : 448 Kbps
Language: English
Subtitle: Croatian

Storyline: Ex-Navy Seal Bobby Kalinowski lives a quiet, peaceful life as a landscape architect in an LA suburb with his wife Dawn and 16 year old daughter Brianna. Tonight they are invited out for an evening on the town by new neighbors clay and Elise Freeman to a happening club downtown. Little did they know that this would be the start of a life or death ordeal for the group. While at the club, Dawn is accosted by one of the club owners, Ethan Bordas. When Bobby intervenes and accidentally kills Ethan defending his wife, his enraged older brother, Seth, puts a one hundred thousand dollar bounty on his head. Now Bobby must escape LA while being pursued by every criminal, wise guy and thug in the city. Bobby decides to separate from his wife and neighbors and revert to his Navy Seal training to survive. To complicate matters, Seth has a corrupt police sergeant preventing Bobby from getting any help from the law...


DOWNLOAD
-CroatianSubtitleIncludedInRAR-





Nazad na vrh Ići dole
Pogledaj profil korisnika
svetlana romanov
Registrovani član
Registrovani član
avatar

Broj poruka : 45
Godina : 56
Points : 3716
Reputation : 2
Datum upisa : 08.12.2007

PočaljiNaslov: The Other Guys 2010 R5 LiNE XviD-LAP   Uto 26 Okt 2010, 10:42

The Other Guys 2010 R5 LiNE XviD-LAP

The Other Guys (2010)

[You must be registered and logged in to see this link.]

2010-10-21 700.72MB 1h 43m 0s
XviD 796kbps 640×272 AR2.35 25.00FPS
MPEG Layer 3 142kbps 48000Hz Stereo

Terry Hoitz’s past mistakes in the line of duty and Allen Gamble’s reluctance to take risks have landed them the roles of the “Other Guys”, disgraced New York City police detectives relegated to filling out paperwork for cocky hero cops Danson and Highsmith. The mismatched duo must look past their differences when they take on a high-profile investigation of shady capitalist David Ershon and attempt to fill the shoes of the notoriously reckless officers they idolize.

DOWNLOAD
Nazad na vrh Ići dole
Pogledaj profil korisnika
Sponsored content




PočaljiNaslov: Re: FILMOVI 2010   

Nazad na vrh Ići dole
 
FILMOVI 2010
Pogledaj prethodnu temu Pogledaj sledeću temu Nazad na vrh 
Strana 2 od 3Idi na stranu : Prethodni  1, 2, 3  Sledeći
 Similar topics
-
» Naša lista filmova
» Preporuci nam dobar film
» Muzički filmovi
» Moji najdraži filmovi
» Filmovi o avionima , pilotima , letilicama

Dozvole ovog foruma:Ne možete odgovarati na teme u ovom forumu
Radio D-65 :: Film :: Strani-
Skoči na: