Radio D-65
HVALA ŠTO STE SA NAMA !!!!!!!
UPOTPUNITE I POSTAVITE I VI NEŠTO
BUDITE AKTIVAN ČLAN OVOG FORUMA


Informacije, Kultura, Oglasi, Muzika
 
PrijemGalerijaČesto Postavljana PitanjaTražiRegistruj seLista članovaKorisničke grupePristupi
Traži
 
 

Rezultati od :
 
Rechercher Napredna potraga
Similar topics
Zadnje teme
» Blues Forever, Vol.77 (2017)
Ned 15 Okt 2017, 05:07 od mromanov

» AKCIONI FILMOVI
Ned 15 Okt 2017, 05:00 od mromanov

» THRILLERI
Ned 15 Okt 2017, 04:55 od mromanov

» HOROR FILMOVI
Pon 11 Sep 2017, 10:44 od mromanov

» Becarci - Tamburaski becarac
Ned 10 Sep 2017, 19:35 od mromanov

» Tamburaši najlepše pesme MIX/ lek za dušu
Ned 10 Sep 2017, 19:32 od mromanov

» Najlepše kafanske pesme za srce i dušu / harmonika+violina+gitara / MIX
Ned 10 Sep 2017, 19:29 od mromanov

» Hungarian Gypsy Music Part 1
Ned 10 Sep 2017, 19:26 od mromanov

» Johannes_Brahms--Hungarian_Dance_No._5
Ned 10 Sep 2017, 19:24 od mromanov

» Stranger on the Shore - 101 Instrumental All Time Greats
Ned 10 Sep 2017, 19:18 od mromanov

» The world music collection - 200 Instrumental hits
Ned 10 Sep 2017, 19:15 od mromanov

»  ADVENTURE
Ned 10 Sep 2017, 10:31 od mromanov

» Elton John - Discography ( 41 Albums ) 1969-2008-MFA
Uto 05 Sep 2017, 19:16 od mromanov

» Paco de Lucía - Discography (1969-2004)
Uto 05 Sep 2017, 19:11 od mromanov

Navigation
 Portal
 Indeks
 Lista članova
 Profil
 FAQ - Često Postavljana Pitanja
 Traži
Internet Radio D65
PODRŽITE NAŠ RADIO Ovde glasajte za naš radio

Delite | 
 

 Kid Racer 2010 DvDRip XviD Ac3 Feel-Free

Pogledaj prethodnu temu Pogledaj sledeću temu Ići dole 
AutorPoruka
mromanov
Srebrni član
Srebrni član
avatar

Broj poruka : 790
Godina : 56
Location : DERONJE
Points : 4292
Reputation : 52
Datum upisa : 24.08.2010

PočaljiNaslov: Kid Racer 2010 DvDRip XviD Ac3 Feel-Free   Sub 11 Sep 2010, 06:59

Kid Racer 2010
DvDRip XviD Ac3 Feel-Free



Format : AVI
Format/Info : Audio Video Interleave
File size : 1.03 GiB
Duration : 1h 20mn
Overall bit rate : 1 848 Kbps
Video 0
Codec ID : XVID
Codec ID/Hint : XviD
Duration : 1h 20mn
Bit rate : 1 517 Kbps
Width : 640 pixels
Height : 352 pixels
Display aspect ratio : 16:9
Frame rate : 29.970 fps
Resolution : 24 bits
Colorimetry : 4:2:0
Scan type : Progressive
Bits/(Pixel*Frame) : 0.225
Stream size : 869 MiB (82%)
Writing library : XviD 1.2.1 (UTC 2008-12-04)
Audio #1
ID : 1
Format : AC-3
Format/Info : Audio Coding 3
Codec ID : 2000
Duration : 1h 20mn
Bit rate mode : Constant
Bit rate : 320 Kbps
Channel(s) : 6 channels
Channel positions : Front: L C R, Surround: L R, LFE
Sampling rate : 48.0 KHz
Stream size : 183 MiB (17%)
Alignment : Split accross interleaves
Interleave, duration : 33 ms (1.00 video frame)
Interleave, preload duration : 500 ms


download:

[You must be registered and logged in to see this link.]
[You must be registered and logged in to see this link.]
[You must be registered and logged in to see this link.]
[You must be registered and logged in to see this link.]
[You must be registered and logged in to see this link.]
[You must be registered and logged in to see this link.]
Nazad na vrh Ići dole
Pogledaj profil korisnika
 
Kid Racer 2010 DvDRip XviD Ac3 Feel-Free
Pogledaj prethodnu temu Pogledaj sledeću temu Nazad na vrh 
Strana 1 od 1
 Similar topics
-
» Novi Pravopis srpskog jezika (2010)
» Vida Nenadic
» Lapsusi - naši i tuđi
» Recept za srećan život
» Linkin Park

Dozvole ovog foruma:Ne možete odgovarati na teme u ovom forumu
Radio D-65 :: Film :: Strani-
Skoči na: